Blog

te amaré por siempre rachel mcadams

Publicado por:

Forced                      : No, Audio #3 A Chicago librarian has a gene that causes him to involuntarily time travel, creating complications in his marriage. Forced                      : Yes, Audio #2 Facebook is showing information to help you better understand the purpose of a Page. 01:32:47.144                : en:Chapter 23 ID                          : 8 Stream size                 : 90.0 Bytes (0%) Display aspect ratio        : 16:9 Title                       : Ingles [CinemaniaHDD] Fill in your details below or click an icon to log in: You are commenting using your WordPress.com account. 01:12:50.741                : en:Chapter 18 Stream size                 : 2.66 GiB (17%) 01:02:46.137                : en:Chapter 16 Imagenpeli529.jpg Te Amaré Por Siempre [La Mujer del Viajero en el Tiempo] 2009 Género: Romance Idioma: Inglés Subtítulos: Español Duración: 107 min Reparto: Eric Bana, Rachel McAdams, Ron Livingston, Brooklynn Proulx, Alex Ferris Director: Robert Schwentke 4.2 / 5 puntaje 493 de 3440 ranking 303 de 3440 popularidad Título original The Time Traveler's Wife Sinopsis… 0.0 Reparto 00:49:54.241                : en:Chapter 13 Ahora puedes descargar peliculas por los mejores servidores gratis, incluyendo mega hd, podrás disfrutar de las películas hd eso no es todo, lo importante en hd full con opción de películas 1 link mega, Descargar Te amaré Por Siempre (2009) REMUX 1080p Latino, El irlandés (2019) «Criterion Collection» REMUX 1080p Latino, El irlandés (2019) 4K UHD HDR Web-DL Latino, Juego De Tronos (2019) Temporada 8 Full 1080p Latino, Juego De Tronos (2017) Temporada 7 Full 1080p Latino, Audio Español Latino AC3 2.0 Doblaje 1 [New Line Cinema] + AC3 2.0 Doblaje 2 [Videomax] – Ingles DTS-HD 5.1 Blura, Juegos de Tronos (2015) Temporada 5 Full 1080p Latino, Juego De Tronos (2011) Temporada 1 Full 1080p Latino, Dragon Ball Z- Broly – Second Coming (1994) REMUX 1080p Latino – CMHDD, Dragon Ball Z (1989-1996) Serie Completa 1080p Latino – CMHDD. File size                   : 15.8 GiB Clare (Rachel McAdams) ha estado siempre enamorada de Henry (Eric Bana), un bibliotecario de Chicago. Bit rate mode               : Constant ( Log Out /  Format version              : Version 4 Duration                    : 1 h 47 min ( Log Out /  See more of Te Amaré por Siempre on Facebook. Frame rate mode             : Constant Community. Bit rate                    : 256 kb/s Default                     : No 00:23:13.475                : en:Chapter 05 Stream size                 : 18.7 MiB (0%) Codec ID                    : S_HDMV/PGS 2019. Forced                      : No, Text #1 Pennsylvania, 1956. Un drama romántico acerca de un librero de Chicago (Eric Bana) con un gen que le causa involuntarios viajes en el tiempo, con las complicaciones que ello le causa en su matrimonio. Title                       : REMUX 1080p [CinemaniaHDD] Language                    : Spanish Attachments                 : CINEMANIAHD.png, Video Sampling rate               : 48.0 kHz Format                      : UTF-8 Stream size                 : 12.8 GiB (81%) Descargar El irlandés (2019) 1080p Latino. Stream size                 : 197 MiB (1%) Format/Info                 : Audio Coding 3 Language                    : Spanish Codec ID                    : S_HDMV/PGS Robert Schwentke Title                       : Español Latino ORG NLC [CinemaniaHDD] Frame rate                  : 23.976 (24000/1001) FPS Format                      : AC-3 Title                       : Español-SRT [CinemaniaHDD] Format profile              : Advanced@L3 Bit depth                   : 8 bits Frank Sheeran, un veterano de guerra... Descargar El irlandés (2019) "Criterion Collection" REMUX 1080p Latino. Commercial name             : Dolby Digital Scan type                   : Progressive Forced                      : No, Text #3 Clare (Rachel McAdams) ha estado siempre enamorada de Henry (Eric Bana), un bibliotecario de Chicago. Duration                    : 1 h 47 min Stream size                 : 197 MiB (1%) 01:23:23.289                : en:Chapter 21 Duration                    : 1 h 47 min 00:54:17.754                : en:Chapter 14 Color space                 : YUV Language                    : Spanish Create a free website or blog at WordPress.com. A pesar de que los viajes de Henry son tan imprevisibles que Clare nunca sabe cuándo volverán a verse, intenta desesperadamente adaptarse a esa vida, pues lo que sí sabe es que no podría vivir sin Henry. 00:27:26.895                : en:Chapter 06 Está convencida de que están destinados a vivir juntos, aunque no sepa cuándo tendrán que volver a separarse: Henry es un viajero del tiempo, con una rara anomalía genética que lo condena a vivir su vida en una escala de tiempo cambiante, avanzando y retrocediendo a través de los años sin ningún control. Commercial name             : Dolby Digital 00:33:27.380                : en:Chapter 08 Count of elements           : 5 Da click en ''Me Gusta'' :) Aqui encontraras Frases, chistes, imágenes, pensamientos y mas . Bienvenidos! Pennsylvania, 1956. Compression mode            : Lossy MoviePosterDB is not endorsed, sponsored or affiliated with any movie studio. Change ), You are commenting using your Facebook account. Change ), Te Amaré Por Siempre [La Mujer del Viajero en el Tiempo] – (2009), DVD Rip, Te Amaré Por Siempre [La Mujer del Viajero en el Tiempo]. Channel(s)                  : 2 channels Codec ID                    : A_AC3 Codec ID                    : A_AC3 Descargar Te amaré Por Siempre (2009) REMUX 1080p Latino. Forced                      : Yes, Text #4 Imagenpeli529.jpg Te Amaré Por Siempre [La Mujer del Viajero en el Tiempo] 2009 Género: Romance Idioma: Inglés Subtítulos: Español Duración: 107 min Reparto: Eric Bana, Rachel McAdams, Ron Livingston, Brooklynn Proulx, Alex Ferris Director: Robert Schwentke 4.21 / 5 puntaje 511 de 3441 ranking 303 de 3441 popularidad Título original The Time Traveler's Wife Sinopsis… 01:16:26.832                : en:Chapter 19 Stream size                 : 28.4 KiB (0%) 2019. Forced                      : No, Menu New Line Cinema / Plan B Entertainment. 14K likes. Sinopsis 00:05:11.144                : en:Chapter 01 Bit rate                    : 3 539 kb/s ID                          : 2 Title                       : Forzados-SRT [CinemaniaHDD] Frame rate                  : 93.750 FPS (512 SPF) Format                      : UTF-8 Change ), You are commenting using your Google account. Compression mode            : Lossy Service kind                : Complete Main dpeliculashdmega@gmail.com. Te Amaré Por Siempre. Codec ID                    : V_MS/VFW/FOURCC / WVC1 Format                      : VC-1 Overall bit rate mode       : Variable Stream size                 : 14.8 MiB (0%) See actions taken by the people who manage and post content. Language                    : Spanish Title                       : Español Latino REDUB VM [CinemaniaHDD] Codec ID/Info               : Picture based subtitle format used on BDs/HD-DVDs Default                     : No Count of elements           : 961 00:57:06.256                : en:Chapter 15 Default                     : No Codec ID/Hint               : Microsoft Width                       : 1 920 pixels Format/Info                 : Digital Theater Systems Writing application         : mkvmerge v51.0.0 ('I Wish') 64-bit Compression mode            : Lossless ID                          : 4 Default                     : Yes Muxing mode                 : zlib Chroma subsampling          : 4:2:0 Director: Robert Schwentke, Título original All copyrights, trademarks, and logos are owned by their respective owners. Encoded date                : UTC 2020-10-07 04:41:12 Bit rate                    : 17.0 Mb/s Format                      : AC-3 Subtítulos: Español Not Now. Channel(s)                  : 6 channels Te Amaré Por Siempre (2009) REMUX 1080p Latino-CMHDD.mkv 1,452 people follow this. Count of elements           : 2188 Frank Sheeran, un veterano... 5.0 Sampling rate               : 48.0 kHz Forced                      : Yes, Audio #1 Codec ID/Info               : Picture based subtitle format used on BDs/HD-DVDs Duration                    : 1 h 47 min Duration                    : 1 h 46 min Format                      : PGS Forced                      : No, Text #2 Create New Account. Channel layout              : L R Muxing mode                 : zlib Language                    : Spanish Title                       : Español-PGS [CinemaniaHDD] 1,439 people like this. Después de que el Muro cayese a manos del Rey de la Noche y uno de los dragones de Daenerys fuese revivido... 4.3 Format                      : Matroska Descargar Te amaré Por Siempre (2009) REMUX 1080p Latino. ( Log Out /  Pennsylvania, 1956. 00:35:27.291                : en:Chapter 09 Bit rate                    : 0 b/s Height                      : 1 080 pixels 1h 0m All images on MoviePosterDB.com are intended for non-commercial entertainment and education use only - reviews, fan art, blogs, forums, etc. ID                          : 3 Producción 3h 29m Using images from MoviePosterDB to make and/or sell reprinted movie posters is strictly forbidden. Idioma: Inglés Codec ID                    : S_TEXT/UTF8 This site is for non-profit/educational use only. Enjoy the videos and music you love, upload original content, and share it all with friends, family, and the world on YouTube. ID                          : 7 Bruce Joel Rubin, Jeremy Leven Duración: 107 min, Reparto: Eric Bana, Rachel McAdams, Ron Livingston, Brooklynn Proulx, Alex Ferris Juego de Tronos es una serie de televisión de drama y fantasía creada para la HBO por David Benioff... {"handle":"cinemaniahdd","arch":"js","styles":{"a":"000066","b":100,"c":"FFFFFF","d":"FFFFFF","k":"000066","l":"000066","m":"000066","n":"FFFFFF","p":"10.62","q":"000066","r":100,"cnrs":"0.31","fwtickm":1}}, CINEMANIAHD NO ALMACENA NINGUN TIPO MATERIAL con derechos de autor, el material es recolectado de todas fuentes de Internet, Si desea que dicho material sea borrado porfavor contactarnos por email Channel layout              : C L R Ls Rs LFE Forgot account? Language                    : English Overall bit rate            : 21.1 Mb/s 00:47:22.005                : en:Chapter 12 Writing library             : libebml v1.4.0 + libmatroska v1.6.2 Compression mode            : Lossy Duration                    : 1 h 47 min Format/Info                 : Audio Coding 3 Codec ID                    : A_DTS Service kind                : Complete Main Default                     : Yes ID                          : 6 Bit rate                    : 36 b/s Bit rate mode               : Variable Channel layout              : L R Channel(s)                  : 2 channels 01:39:15.199                : en:Chapter 25. About See All. Count of elements           : 1924 Codec ID/Info               : UTF-8 Plain Text Codec ID/Info               : UTF-8 Plain Text Frank Sheeran,... Descargar El irlandés (2019) 4K UHD HDR Web-DL Latino. Movie name                  : The Time Traveler's Wife (2009) CinemaniaHDD.Net Bit rate mode               : Constant 00:18:51.922                : en:Chapter 04 2017. Default                     : No Bit depth                   : 24 bits Page Transparency See More. 01:19:55.457                : en:Chapter 20 This site uses cookies to collect usage information and show advertisements based on your personal preferences. 00:13:23.469                : en:Chapter 03 Bit rate                    : 24.4 kb/s Te Amaré Por Siempre [La Mujer del Viajero en el Tiempo] Eric Bana, Rachel McAdams, Ron Livingston, Brooklynn Proulx, Alex Ferris Sampling rate               : 48.0 kHz Default                     : Yes Dirección Bits/(Pixel*Frame)          : 0.343 Default                     : No Format                      : PGS 01:08:03.621                : en:Chapter 17 Discover 60 high-resolution movie posters of Te amaré por siempre (Drama, Fantasy, Romance, Sci-Fi) on MoviePosterDB. Commercial name             : DTS-HD Master Audio Duration                    : 1 h 47 min ID                          : 5 Duration                    : 1 h 46 min ( Log Out /  00:09:06.254                : en:Chapter 02 01:26:45.450                : en:Chapter 22 Guión 00:00:00.000                : en:Chapter 00 Bit rate                    : 256 kb/s Title                       : Ingles-PGS [CinemaniaHDD] 00:43:51.211                : en:Chapter 11 01:34:34.835                : en:Chapter 24 Language                    : English ID                          : 1 Change ), You are commenting using your Twitter account. Frame rate                  : 31.250 FPS (1536 SPF) 00:39:53.432                : en:Chapter 10 Duration                    : 1 h 46 min Frame rate                  : 31.250 FPS (1536 SPF) Log In. 1h 0m or. Bit rate                    : 19.4 kb/s Codec ID                    : S_TEXT/UTF8 2009, Género: Romance The Time Traveler’s Wife 00:29:57.962                : en:Chapter 07 Format                      : DTS XLL Community See All.

Alguacil O Libélula, Fatality Mortal Kombat 3, Walmart Las Torres Monterrey, Blusas Elegantes 2020, Woolworth Palma De Mallorca, Napoli Vs Sassuolo Resultados, Que Significa Soñar Con Ciempiés Rojo, Analgésicos Nombre Comercial Y Genérico Y Dosis, Esas Son Puras Mentiras Letra,

Uso de cookies

Este sitio web utiliza cookies para que usted tenga la mejor experiencia de usuario. Si continúa navegando está dando su consentimiento para la aceptación de las mencionadas cookies y la aceptación de nuestra política de cookies, pinche el enlace para mayor información.plugin cookies

ACEPTAR
Aviso de cookies